<?xml version="1.0" standalone="no"?>
<!DOCTYPE svg PUBLIC "-//W3C//DTD SVG 1.1//EN" "http://www.w3.org/Graphics/SVG/1.1/DTD/svg11.dtd" >
<svg xmlns="http://www.w3.org/2000/svg">
<metadata>Generated by IcoMoon</metadata>
<defs>
<font id="xcartskin" horiz-adv-x="1024">
<font-face units-per-em="1024" ascent="819.8005865102639" descent="-204.19941348973606" />
<missing-glyph horiz-adv-x="1024" />
<glyph unicode="&#x20;" horiz-adv-x="512.5004887585533" d="" />
<glyph unicode="&#xe900;" glyph-name="chevron-up" d="M1003.131 143.978l-448.108 448.108c-11.511 11.438-26.554 17.23-41.594 17.23-14.962 0-30.002-5.795-41.437-17.156l-448.964-447.479c-23.021-22.872-23.021-60.153-0.156-83.103s60.073-22.948 83.027-0.076l365.003 348.164 86.156-1.567 362.965-347.142c23.021-22.948 60.153-22.948 83.103 0 22.872 22.948 22.872 60.073 0 83.027z" />
<glyph unicode="&#xe901;" glyph-name="bag" d="M820.001 627.2h-76.875c-12.813 121.719-115.313 217.813-237.031 217.813s-224.219-96.094-230.625-217.813h-70.469c-44.844 0-76.875-32.031-76.875-76.875v-647.032c0-51.25 32.031-83.281 76.875-83.281h608.594c57.656 0 83.281 32.031 83.281 83.281v640.626c0 51.25-32.031 83.281-76.875 83.281zM506.094 748.919c70.469 0 128.125-51.25 134.531-121.719h-269.063c6.406 70.469 64.063 121.719 134.531 121.719zM224.219-83.894v615.001h51.25v-51.25h96.094v51.25h275.469v-51.25h96.094v51.25h51.25v-615.001h-570.157z" />
<glyph unicode="&#xe902;" glyph-name="indicator" horiz-adv-x="872" d="M830.197 55.365c0-97.098-78.713-175.811-175.811-175.811s-175.811 78.713-175.811 175.811c0 97.098 78.713 175.811 175.811 175.811s175.811-78.713 175.811-175.811z" />
<glyph unicode="&#xe903;" glyph-name="mail" d="M412.943 247.097c51.243-51.507 134.183-51.507 185.162 0 0 0 408.097 367.683 408.097 367.683 0.528-4.49 1.321-8.717 1.321-12.943 0 0 0-458.019 0-458.019s0-132.070 0-132.070c0-48.602-39.093-87.959-87.166-87.959 0 0-829.4 0-829.4 0-48.073 0-87.166 39.357-87.166 87.959 0 0 0 220.293 0 220.293s0 369.796 0 369.796c0 4.226 0.528 8.452 1.321 12.943 0 0 407.833-367.683 407.833-367.683zM957.072 707.758c0 0-394.626-354.212-394.626-354.212-43.583-43.847-70.525-43.847-114.109 0 0 0-394.361 353.948-394.361 353.948 11.094 5.547 23.773 8.717 36.98 8.717 0 0 829.4 0 829.4 0 13.207 0 25.357-3.17 36.716-8.452z" />
<glyph unicode="&#xe904;" glyph-name="zoom" d="M590.453 479.996h-198.089v198.089c0 9.879-8.021 17.894-17.894 17.894s-17.894-8.021-17.894-17.894v-198.089h-198.018c-9.903 0-17.894-8.021-17.894-17.894s7.997-17.894 17.894-17.894h198.018v-198.089c0-9.879 8.021-17.894 17.894-17.894s17.894 8.021 17.894 17.894v198.089h198.089c9.879 0 17.894 8.021 17.894 17.894s-8.021 17.894-17.894 17.894v0zM1007.916-152.448l-359.745 359.745c62.348 66.929 100.858 156.359 100.858 254.807 0 206.537-168.026 374.562-374.562 374.562-206.489 0-374.467-168.026-374.467-374.562 0-206.489 167.978-374.539 374.467-374.539 95.204 0 181.961 36.005 248.097 94.726l360.056-360.056c3.483-3.483 8.063-5.225 12.645-5.225s9.168 1.742 12.645 5.225c6.988 6.988 6.988 18.325 0 25.317v0zM374.467 123.353c-186.732 0-338.677 151.991-338.677 338.743 0 186.803 151.943 338.768 338.677 338.768 186.78 0 338.768-151.967 338.768-338.768 0-186.756-151.991-338.743-338.768-338.743v0z" />
<glyph unicode="&#xe905;" glyph-name="power" horiz-adv-x="958" d="M815.667 626.524l-48.115 48.115c-26.542 26.611-69.625 26.611-96.236 0-26.542-26.542-26.542-69.625 0-96.236l48.115-48.115c132.922-132.922 132.922-348.332 0-481.25-132.851-132.851-348.332-132.851-481.25 0-132.851 132.922-132.851 348.332 0 481.25l48.115 48.115c26.611 26.611 26.611 69.694 0 96.236-26.542 26.611-69.625 26.611-96.236 0l-48.115-48.115c-186.079-186.009-186.079-487.719 0-673.714 186.079-186.079 487.719-186.079 673.714 0 186.079 186.009 186.079 487.719 0 673.714v0zM478.835 425.748c37.578 0 68.052 30.492 68.052 68.052v272.241c0 37.641-30.492 68.052-68.052 68.052-37.641 0-68.052-30.427-68.052-68.052v-272.241c0-37.578 30.427-68.052 68.052-68.052v0z" />
<glyph unicode="&#xe906;" glyph-name="person" horiz-adv-x="958" d="M784.141 244.934c22.702 54.926 36.663 115.87 36.663 181.329 0 226.609-153.144 410.398-342.001 410.398-188.915 0-342.001-183.791-342.001-410.398 0-65.459 13.888-126.403 36.595-181.329-105.132-87.826-173.394-218.197-173.394-365.872 0-37.831 30.575-68.469 68.401-68.469 37.759 0 68.401 30.643 68.401 68.469 0 98.292 42.066 186.32 108.485 248.704 61.215-68.947 142.951-111.971 233.518-111.971 90.493 0 172.231 43.024 233.45 111.971 66.417-62.381 108.557-150.412 108.557-248.704 0-37.831 30.575-68.469 68.401-68.469 37.759 0 68.401 30.643 68.401 68.469 0 147.676-68.331 278.047-173.465 365.872v0zM478.807 152.593c-113.342 0-205.2 122.506-205.2 273.669 0 151.096 91.862 273.532 205.2 273.532s205.2-122.436 205.2-273.532c0-151.164-91.862-273.669-205.2-273.669v0z" />
<glyph unicode="&#xe907;" glyph-name="menu" d="M0 616.802c0 26.984 19.581 48.855 44.748 48.855h936.509c24.711 0 44.748-21.684 44.748-48.855 0-26.984-19.581-48.855-44.748-48.855h-936.509c-24.711 0-44.748 21.684-44.748 48.855zM0 323.662c0 26.984 20.287 48.855 44.607 48.855h669.131c24.634 0 44.607-21.684 44.607-48.855 0-26.984-20.287-48.855-44.607-48.855h-669.131c-24.634 0-44.607 21.684-44.607 48.855zM0 30.521c0 26.984 19.581 48.855 44.748 48.855h936.509c24.711 0 44.748-21.684 44.748-48.855 0-26.984-19.581-48.855-44.748-48.855h-936.509c-24.711 0-44.748 21.684-44.748 48.855z" />
<glyph unicode="&#xe908;" glyph-name="wishlist" horiz-adv-x="1154" d="M577.127 705.567c-57.712 79.796-150.053 131.1-253.936 131.1-178.91 0-323.191-142.5-323.191-319.201 0-250.801 577.127-706.802 577.127-706.802s577.127 456.001 577.127 706.802c0 176.701-144.282 319.201-323.191 319.201-103.882 0-196.223-51.3-253.936-131.1z" />
<glyph unicode="&#xe909;" glyph-name="star" horiz-adv-x="1105" d="M552.464 7.968l-324.73-170.721 62.019 361.592-262.712 256.081 363.060 52.752 162.361 328.987 162.361-328.987 363.060-52.752-262.712-256.081 62.019-361.592z" />
<glyph unicode="&#xe90a;" glyph-name="trash" horiz-adv-x="834" d="M300.31 836.664c-40.586 0-73.423-34.16-73.423-75.213v-56.973h-194.046c-18.242 0-32.84-15.38-32.84-33.36s14.599-33.36 32.84-33.36h43.080l23.85-689.166c0-75.668 60.133-137.934 134.359-137.934h365.367c74.208 0 134.359 62.148 134.359 137.308l23.85 689.791h43.080c18.242 0 32.84 15.354 32.84 33.36s-14.598 33.36-32.84 33.36h-177.689v56.973c0 41.060-32.916 75.213-73.548 75.213h-249.239zM300.31 803.555h249.239c10.972 0 12.671-13.425 19.979-20.864-7.335 7.291-8.919 20.365-19.979 20.365h-249.239c-11.037 0-12.541-13.090-19.853-20.365 7.293 7.418 8.942 20.864 19.853 20.864zM300.31 769.946h249.239c4.079 0 7.743-3.471 7.743-8.495v-56.973h-264.598v56.973c0 5.059 3.613 8.495 7.616 8.495zM32.84 671.369h767.97c-0.191 0-0.255 0.319-0.255-0.249s0.056-0.249 0.255-0.249h-767.964c0.128 0 0.255-0.345 0.255 0.249s-0.128 0.249-0.255 0.249zM141.726 637.76h550.049l-23.6-689.29-0.128 0.128c0-39.659-30.857-71.215-68.554-71.215h-365.367c-37.697 0-68.554 31.448-68.554 71.84v0.249l-23.849 688.292zM416.439 535.934c-18.215 0-32.965-15.478-32.965-33.484v-490.262c0-18.005 14.722-33.36 32.965-33.36s32.84 15.354 32.84 33.36v490.262c0 18.007-14.625 33.484-32.84 33.484zM291.82 458.971c-18.242 0-32.965-15.479-32.965-33.484v-336.212c0-18.006 14.722-33.484 32.965-33.484s32.84 15.478 32.84 33.484v336.212c0 18.007-14.598 33.484-32.84 33.484zM543.056 458.971c-18.242 0-32.965-15.479-32.965-33.484v-336.212c0-18.006 14.723-33.484 32.965-33.484s32.84 15.479 32.84 33.484v336.212c0 18.006-14.598 33.484-32.84 33.484zM162.33-124.87c18.399-18.986 43.74-30.86 71.8-30.86h365.367c28.042 0 53.409 11.737 71.8 30.61-18.385-19.102-43.755-31.109-71.8-31.109h-365.367c-28.137 0-53.401 12.098-71.8 31.361z" />
<glyph unicode="&#xe90b;" glyph-name="list-view2" d="M0 836.664h205.2v-205.2h-205.2v205.2zM367.284 836.664h658.705v-205.2h-658.705v205.2zM367.284 426.254h658.705v-205.2h-658.705v205.2zM0 426.254h205.2v-205.2h-205.2v205.2zM367.284 15.861h658.705v-205.2h-658.705v205.2zM0 15.861h205.2v-205.2h-205.2v205.2z" />
<glyph unicode="&#xe90c;" glyph-name="table-view2" d="M0 836.664h1025.999v-205.2h-1025.999v205.2zM0 426.254h1025.999v-205.2h-1025.999v205.2zM0 15.861h1025.999v-205.2h-1025.999v205.2z" />
<glyph unicode="&#xe90d;" glyph-name="grid-view2" d="M0 836.664h205.2v-205.2h-205.2v205.2zM820.803 836.664h205.2v-205.2h-205.2v205.2zM410.409 836.664h205.2v-205.2h-205.2v205.2zM820.803 426.254h205.2v-205.2h-205.2v205.2zM410.409 426.254h205.2v-205.2h-205.2v205.2zM0 426.254h205.2v-205.2h-205.2v205.2zM820.803 15.861h205.2v-205.2h-205.2v205.2zM410.409 15.861h205.2v-205.2h-205.2v205.2zM0 15.861h205.2v-205.2h-205.2v205.2z" />
<glyph unicode="&#xe90e;" glyph-name="filter-icon" horiz-adv-x="1128" d="M565.406 727.102c11.871 0 21.503 9.633 21.503 21.503v68.299c0 11.871-9.633 21.503-21.503 21.503s-21.503-9.633-21.503-21.503v-68.299c0-11.871 9.633-21.503 21.503-21.503v0zM140.187 176.294c-11.899 0-21.503-9.633-21.503-21.503v-324.374c0-11.871 9.604-21.503 21.503-21.503 11.871 0 21.503 9.633 21.503 21.503v324.374c0 11.871-9.633 21.503-21.503 21.503v0zM990.62 251.051c11.871 0 21.503 9.633 21.503 21.503v544.35c0 11.871-9.633 21.503-21.503 21.503s-21.503-9.633-21.503-21.503v-544.35c0-11.871 9.633-21.503 21.503-21.503v0zM140.187 418.383c11.871 0 21.503 9.633 21.503 21.503v377.016c0 11.871-9.633 21.503-21.503 21.503-11.899 0-21.503-9.633-21.503-21.503v-377.016c0-11.871 9.604-21.503 21.503-21.503v0zM251.928 374.343h-225.767c-11.871 0-21.527-9.633-21.527-21.503v-110.821c0-11.871 9.657-21.503 21.527-21.503h225.767c11.899 0 21.527 9.633 21.527 21.503v110.821c0 11.871-9.633 21.503-21.527 21.503v0zM47.636 331.334h182.817v-67.811h-182.817v67.811zM990.62 9.369c-11.871 0-21.503-9.633-21.503-21.503v-157.442c0-11.871 9.633-21.503 21.503-21.503s21.503 9.633 21.503 21.503v157.442c0 11.871-9.633 21.503-21.503 21.503v0zM1102.066 206.923h-225.801c-11.899 0-21.503-9.633-21.503-21.503v-110.821c0-11.871 9.604-21.503 21.503-21.503h225.801c11.843 0 21.503 9.633 21.503 21.503v110.821c0 11.871-9.657 21.503-21.503 21.503v0zM897.778 163.915h182.788v-67.811h-182.788v67.811zM676.963 684.298h-225.738c-11.899 0-21.503-9.633-21.503-21.503v-110.848c0-11.871 9.604-21.503 21.503-21.503h225.738c11.871 0 21.503 9.633 21.503 21.503v110.848c0 11.871-9.633 21.503-21.503 21.503v0zM472.737 641.285h182.737v-67.811h-182.737v67.811zM565.406 487.83c-11.871 0-21.503-9.633-21.503-21.503v-635.901c0-11.871 9.633-21.503 21.503-21.503s21.503 9.633 21.503 21.503v635.901c0 11.871-9.633 21.503-21.503 21.503v0z" />
<glyph unicode="&#xe90f;" glyph-name="chevron-down" d="M22.872 503.346l448.108-448.108c11.511-11.438 26.554-17.23 41.594-17.23 14.962 0 30.002 5.795 41.437 17.156l448.964 447.479c23.021 22.872 23.021 60.153 0.156 83.103s-60.073 22.948-83.027 0.076l-365.003-348.164-86.156 1.567-362.965 347.142c-23.021 22.948-60.153 22.948-83.103 0-22.872-22.948-22.872-60.073 0-83.027z" />
<glyph unicode="&#xe910;" glyph-name="chevron-right" d="M334.695-162.714l444.682 444.682c11.354 11.424 17.094 26.35 17.094 41.278 0 14.846-5.75 29.774-17.023 41.118l-444.052 445.528c-22.697 22.844-59.697 22.844-82.47 0.15s-22.77-59.613-0.073-82.392l345.496-362.215-1.554-85.499-344.488-360.19c-22.77-22.844-22.77-59.697 0-82.47 22.77-22.697 59.613-22.697 82.392 0z" />
<glyph unicode="&#xe911;" glyph-name="chevron-left" d="M691.308 810.039l-444.682-444.682c-11.354-11.424-17.094-26.35-17.094-41.278 0-14.846 5.75-29.774 17.023-41.118l444.052-445.528c22.697-22.844 59.697-22.844 82.47-0.15s22.77 59.613 0.073 82.392l-345.496 362.215 1.554 85.499 344.488 360.19c22.77 22.844 22.77 59.697 0 82.47-22.77 22.697-59.613 22.697-82.392 0z" />
<glyph unicode="&#xe912;" glyph-name="compare" d="M337.54-158.407c265.909-96.783 560.738 40.698 657.52 306.606s-40.698 560.738-306.606 657.52c-265.909 96.783-560.738-40.698-657.52-306.606s40.698-560.738 306.606-657.52zM506.054 327.13c-236.066 85.922-239.809 90.405-438.431 162.7 85.922 236.066 372.396 372.849 608.462 286.928s374.392-380.11 288.472-616.176c-242.118 88.124-222.433 80.631-458.499 166.548z" />
<glyph unicode="&#xe913;" glyph-name="search" d="M1005.782-64.676l-301.094 294.688c44.844 64.063 70.469 140.938 70.469 230.625 6.406 211.406-172.969 384.375-384.375 384.375-217.813 0-390.782-172.969-390.782-384.375s172.969-390.782 390.782-390.782c83.281 0 153.75 25.625 224.219 70.469l301.094-301.094c6.406-6.406 25.625-19.219 44.844-19.219s32.031 6.406 44.844 19.219c25.625 25.625 25.625 70.469 0 96.094zM390.782 172.356c-160.156 0-294.688 128.125-294.688 288.282s134.531 288.282 294.688 288.282 288.282-128.125 288.282-288.282c0-160.156-128.125-288.282-288.282-288.282z" />
<glyph unicode="&#xe914;" glyph-name="settings-fill" horiz-adv-x="898" d="M448.876 451.912c-70.858 0-128.25-57.392-128.25-128.25 0-70.8 57.392-128.192 128.25-128.192 70.8 0 128.25 57.392 128.25 128.192 0 70.858-57.456 128.25-128.25 128.25v0zM835.231 240.937l0.256 0.384-9.553 5.715c5.002 24.749 7.696 50.402 7.696 76.63 0 26.296-2.694 51.942-7.696 76.694l9.553 5.715-0.256 0.448c37.32 22.38 62.529 62.842 62.529 109.526 0 70.858-57.456 128.25-128.25 128.25-24.173 0-46.484-7.061-65.728-18.66l-0.256 0.448-11.158-6.734c-34.181 28.15-72.724 50.466-115.233 65.536v23.534c0 70.858-57.456 128.25-128.25 128.25-70.858 0-128.25-57.392-128.25-128.25v-23.534c-42.515-15.070-81.118-37.385-115.233-65.536l-11.158 6.734-0.256-0.448c-19.238 11.606-41.618 18.66-65.728 18.66-70.858 0-128.25-57.392-128.25-128.25 0-46.678 25.202-87.15 62.529-109.526l-0.256-0.448 9.553-5.715c-5.002-24.749-7.696-50.402-7.696-76.694 0-26.228 2.694-51.871 7.696-76.63l-9.553-5.715 0.256-0.384c-37.32-22.441-62.529-62.913-62.529-109.647 0-70.8 57.392-128.25 128.25-128.25 24.112 0 46.484 7.118 65.728 18.724l0.256-0.448 11.158 6.734c34.114-28.15 72.724-50.466 115.233-65.536v-23.595c0-70.8 57.392-128.25 128.25-128.25 70.8 0 128.25 57.456 128.25 128.25v23.595c42.515 15.070 81.054 37.385 115.233 65.536l11.158-6.734 0.256 0.448c19.238-11.606 41.554-18.724 65.728-18.724 70.8 0 128.25 57.456 128.25 128.25 0 46.748-25.202 87.21-62.529 109.647v0zM448.876 67.161c-141.656 0-256.5 114.848-256.5 256.5s114.848 256.5 256.5 256.5c141.656 0 256.5-114.848 256.5-256.5s-114.848-256.5-256.5-256.5v0z" />
<glyph unicode="&#xe915;" glyph-name="settings" d="M475.594 836.664c-35.336 0-64.36-29.11-64.36-64.445v-63.616c-0.030-0.128-0.045-0.32-0.274-0.578-0.625-0.789-1.71-1.34-1.378-1.237l-0.893-0.256-94.375-38.986c0.265 0.128-0.054-0.009-0.792 0.064-0.533 0.064-0.935 0.32-1.087 0.448l-44.808 44.848c-24.984 24.818-65.953 24.81-90.93-0.064l-52.906-52.875c-12.123-12.055-18.957-28.525-18.957-45.621 0-17.069 6.801-33.516 18.928-45.54l44.933-44.95c0.067-0.128 0.132-0.128 0.166-0.448 0.106-0.917-0.237-2.026-0.125-1.815l-0.456-0.86-38.737-94.448c0.059 0.192-0.085-0.064-0.618-0.514-0.374-0.256-0.754-0.384-0.886-0.384h-63.703c-35.338-0.001-64.339-29.114-64.339-64.423v-74.751c0-35.293 28.999-64.399 64.337-64.399h63.683c0.134-0.031 0.293-0.043 0.585-0.256 0.795-0.642 1.375-1.738 1.278-1.423l0.255-0.815 38.892-94.303c0.018-0.055 0.136-0.384 0.079-0.796-0.052-0.384-0.205-0.578-0.265-0.661l-45.050-45.021c-12.148-12.080-18.957-28.577-18.957-45.682 0-17.155 6.86-33.574 18.928-45.538l53.115-53.177c25.085-24.501 65.855-24.469 90.801 0.32l45.735 45.771c0.244-0.128 0.262-0.128 1.833-0.924l0.769-0.384 94.23-38.657c-0.060 0.014 0.259-0.128 0.606-0.642 0.277-0.384 0.354-0.77 0.385-0.892v-63.638c0-35.346 29.034-64.442 64.36-64.442h74.696c35.377 0 64.546 29.046 64.546 64.442v65.089c0-4.123 1.865 0.448 1.393 0.32l0.899 0.256 94.548 38.955c-0.32-0.128 0.021-0.009 0.822-0.128 0.552-0.064 0.958-0.384 1.123-0.448l44.591-44.744c24.97-24.966 66.075-24.973 91.083-0.011l0.015 0.015 52.691 52.84c12.104 12.004 19.002 28.453 19.002 45.612 0 17.11-6.799 33.605-18.955 45.657l-44.808 44.736c-0.069 0.128-0.142 0.192-0.172 0.448-0.102 0.968 0.25 2.161 0.172 2.014l0.454 0.866 38.642 94.219c0.012 0.012 0.193 0.384 0.584 0.648 0.352 0.256 0.738 0.32 0.845 0.384h63.831c35.336 0 64.408 29.066 64.408 64.398v74.752c0 35.344-29.071 64.422-64.408 64.422v-0.008l-0.752 0.448-0.003-1.5c-7.96 0.064 0.326-1.18 0.326-1.18l0.422 2.218h-65.098c4.374 0-0.454 1.866-0.384 1.642l-0.268 0.879-38.91 94.336c0.007-0.003-0.12 0.384-0.048 0.879 0.057 0.384 0.238 0.648 0.307 0.757l44.796 44.832c12.192 12.058 19.017 28.541 19.017 45.605 0 17.096-6.817 33.543-18.91 45.566l-52.96 53.137c-24.937 24.649-65.759 24.674-90.836-0.064l-0.057-0.055-45.885-46.041c0.223 0.192 2.707-1.224-1.782 1.084l-0.748 0.384-94.011 38.58c-0.036 0.015-0.36 0.192-0.611 0.514-0.253 0.32-0.342 0.757-0.372 0.86v63.931c0 35.383-29.156 64.445-64.546 64.445h-74.696zM485.3 762.619h55.478v-55.503c0-32.465 20.685-61.36 51.038-70.131l-2.001 0.7 89.36-36.674-1.991 0.949c28.518-15.651 64.385-10.491 87.428 12.447l0.025 0.026 39.129 39.245 39.162-39.293-39.083-39.118c-23.024-22.955-28.681-58.108-13.235-85.702l-1.018 2.103 36.84-89.393-0.685 1.943c9.171-31.217 38.241-52.855 70.75-52.855h55.419v-55.462h-55.417c-32.492 0-61.341-20.799-70.163-51.148l0.685 1.962-36.626-89.324 0.949 1.988c-15.555-28.377-10.592-64.15 12.276-87.247l0.042-0.041 39.269-39.187-39.172-39.233-39.165 39.255c-13.801 13.799-32.878 20.982-52.693 20.982-12.19 0-23.253-2.225-33.236-7.924l2.248 1.103-89.429-36.853 1.899 0.674c-31.098-9.217-52.606-38.251-52.606-70.704v-55.48h-55.48v55.48c0 32.505-20.902 61.347-51.315 70.134l1.996-0.7-89.266 36.603 2.014-0.962c-10.582 5.823-22.535 8.632-34.712 8.632-19.783 0-38.838-7.211-52.619-21.025l-39.269-39.263-39.215 39.265 39.229 39.184c22.928 22.958 28.536 58.010 13.281 85.62l0.965-2.007-36.858 89.415 0.659-1.854c-9.288 31.055-38.223 52.65-70.656 52.65h-55.465v55.47h55.465c32.443 0 61.192 20.864 70.096 51.153l-0.667-1.898 36.58 89.324-0.972-2.033c15.701 28.498 10.535 64.406-12.536 87.354l-39.111 39.088 39.279 39.238 39.213-39.187c13.806-13.802 32.879-21.050 52.713-21.050 12.145 0 23.17 2.238 33.121 7.937l-2.256-1.109 89.334 36.904-1.952-0.687c31.226 9.183 52.929 38.21 52.929 70.714v55.503zM512.99 479.701c-85.861 0-156.042-70.174-156.042-156.045s70.184-156.022 156.042-156.022c85.836 0 155.991 70.157 155.991 156.022s-70.153 156.045-155.991 156.045zM512.99 405.646c45.32 0 81.939-36.596 81.939-81.988s-36.61-81.973-81.939-81.973c-45.38 0-81.985 36.573-81.985 81.973s36.604 81.988 81.985 81.988z" />
<glyph unicode="&#xe916;" glyph-name="ok_mark" horiz-adv-x="1262" d="M1235.681 818.597c-23.377 19.854-58.918 15.998-77.823-8.978l-526.728-690.709c-0.839-1.143-1.6-2.484-2.439-3.803l-132.256-174.922-397.353 382.691c-22.327 21.484-57.769 19.676-78.11-3.956h-0.143c-20.291-23.664-18.55-61.388 3.876-82.899l408.398-393.346c17.775-16.922 40.999-26.62 64.909-26.618 2.33 0 4.775 0.089 7.457 0.304 26.494 2.151 51.174 16.227 67.925 38.028l0.143 0.15 144.75 191.338 0.43 0.75c0.15 0.222 0.28 0.529 0.43 0.75l0.143 0.15 524.715 688.422c18.969 24.875 15.184 62.37-8.187 82.442l-18.096-23.725 17.963 23.879zM507.050-70.003c0.070-0.065 0.222-0.092 0.287-0.15v-0.15l-0.287 0.304z" />
<glyph unicode="&#xe917;" glyph-name="pencil" d="M956.133 776.744c-34.165 32.73-71.817 49.356-112.138 49.356-62.898 0-108.756-40.63-121.37-53.045-17.647-17.436-620.424-620.424-620.424-620.424-3.902-4.002-6.768-8.817-8.31-14.257-13.44-50.376-81.568-273.225-82.187-275.584-3.488-11.391-0.415-23.905 8.003-32.216 6.054-6.054 14.159-9.342 22.367-9.342 3.289 0 6.566 0.514 9.748 1.54 2.257 0.715 232.39 75.103 270.25 86.389 5.032 1.54 9.541 4.2 13.236 7.906 23.905 23.598 586.053 579.589 623.398 618.065 38.578 39.809 57.756 81.156 57.046 123.12-0.715 41.45-20.827 81.259-59.61 118.505zM712.764 672.605c15.904-3.797 53.454-16.314 92.135-55.302 38.986-39.398 49.453-84.236 51.405-94.293-123.324-122.71-407.323-403.63-519.157-514.233-10.253 24.112-26.676 53.045-53.763 80.233-32.832 33.037-66.178 51.703-91.93 62.176 110.701 110.808 399.833 400.034 521.312 521.415zM148.872 98.359c17.237-4.618 52.942-17.742 89.569-54.685 28.112-28.421 41.348-59.61 47.298-78.702-43.399-13.852-138.818-46.79-199.656-66.485 17.963 59.303 48.218 151.336 62.791 199.865zM913.245 580.062c-1.334-1.334-3.385-3.488-5.951-6.054-9.955 25.548-27.292 58.275-57.354 88.647-30.882 31.087-61.971 49.248-87.102 60.026 2.151 2.151 3.902 3.902 4.514 4.514 3.589 3.589 36.12 34.684 76.747 34.684 23.393 0 46.272-10.67 68.23-31.704 25.957-24.829 39.299-49.453 39.809-73.051 0.415-24.112-12.722-49.969-38.886-77.045z" />
<glyph unicode="&#xe918;" glyph-name="phone" d="M842.191-108.242c0 0 0-0.263 0-0.263s-73.781-43.323-73.781-43.323c0 0-154.388 260.726-154.388 260.726s73.781 43.586 73.781 43.586c15.754 9.452 36.496 4.464 45.949-11.815 0 0 120.254-202.699 120.254-202.699s0 0 0 0c8.927-15.491 5.251-36.234-11.815-46.211zM258.773 190.293c-216.615 376.517-100.825 542.72-59.865 573.44 0 0 158.064-266.503 158.064-266.503-38.072-22.581-19.955-72.993 2.888-122.617 0.263-2.363 109.752-186.421 110.802-187.208 56.451-76.669 87.171-111.852 123.668-90.322 0 0 153.863-260.201 153.863-260.201-43.586-27.044-260.989-43.323-489.419 353.411zM450.708 552.632c0 0 0-0.263 0-0.263s-73.781-43.323-73.781-43.323c0 0-157.801 266.765-157.801 266.765s73.781 43.586 73.781 43.586c15.754 9.19 36.496 4.201 45.949-11.815 0-0.263 123.668-208.738 123.668-208.738s0-0.263 0-0.263c9.19-15.229 5.251-35.971-11.815-45.949z" />
<glyph unicode="&#xe919;" glyph-name="location" d="M518.227-171.797c-65.038 0-390.227 313.842-390.227 627.408 0 207.844 174.634 376.389 390.227 376.389s390.504-168.545 390.504-376.389c0-313.565-325.189-627.408-390.504-627.408zM518.227 664.839c-123.157 0-223.066-99.909-223.066-223.066 0-123.434 99.909-223.066 223.066-223.066 123.434 0 223.066 99.632 223.066 223.066 0 123.157-99.632 223.066-223.066 223.066z" />
<glyph unicode="&#xe91a;" glyph-name="minus" d="M128.25 366.412h769.502q17.701 0 30.226-12.524t12.524-30.226-12.524-30.226-30.226-12.524h-769.502q-17.701 0-30.226 12.524t-12.524 30.226 12.524 30.226 30.226 12.524z" />
<glyph unicode="&#xe91b;" glyph-name="plus" d="M513.001 772.539q18.587 0 31.738-13.151t13.151-31.738v-359.099h359.099q18.587 0 31.738-13.151t13.151-31.738-13.151-31.738-31.738-13.151h-359.099v-359.099q0-18.587-13.151-31.738t-31.738-13.151-31.738 13.151-13.151 31.738v359.099h-359.099q-18.587 0-31.738 13.151t-13.151 31.738 13.151 31.738 31.738 13.151h359.099v359.099q0 18.587 13.151 31.738t31.738 13.151z" />
<glyph unicode="&#xe91c;" glyph-name="cross" d="M887.066 751.161q22.961 0 38.198-15.237t15.237-38.198q0-22.544-15.447-37.991l-336.492-336.073 336.492-336.073q15.447-15.447 15.447-37.991 0-22.961-15.237-38.198t-38.198-15.237q-22.544 0-37.991 15.447l-336.073 336.492-336.073-336.492q-15.447-15.447-37.991-15.447-22.961 0-38.198 15.237t-15.237 38.198q0 22.544 15.447 37.991l336.492 336.073-336.492 336.073q-15.447 15.447-15.447 37.991 0 22.961 15.237 38.198t38.198 15.237q22.544 0 37.991-15.447l336.073-336.492 336.073 336.492q15.447 15.447 37.991 15.447z" />
<glyph unicode="&#xe91d;" glyph-name="orders" horiz-adv-x="1262" d="M1183.849 520.97h-187.995l-136.064 272.127-0.711-0.394c-12.944 25.808-38.988 43.96-69.847 43.96-43.567 0-78.923-35.278-78.923-78.923 0-12.706 3.71-24.23 9.076-34.884l-0.79-0.394 100.784-201.492h-375.991l100.706 201.492-0.711 0.394c5.366 10.654 9.076 22.178 9.076 34.884 0 43.645-35.358 78.923-78.923 78.923-30.859 0-56.905-18.153-69.847-43.96l-0.711 0.394-136.064-272.127h-187.995c-43.567 0-78.923-35.278-78.923-78.923 0-43.567 35.358-78.923 78.923-78.923h19.336l141.509-495.165 1.262 0.315c9.47-32.99 38.594-57.614 74.662-57.614h631.387c35.989 0 65.113 24.624 74.583 57.614l1.262-0.315 141.509 495.165h19.415c43.567 0 78.923 35.358 78.923 78.923 0 43.645-35.358 78.923-78.923 78.923v0zM887.572-31.493h-512.37l-112.702 394.616h737.775l-112.702-394.616z" />
<glyph unicode="&#xe91e;" glyph-name="account" d="M800.782 543.919c0 166.563-128.125 301.094-294.688 301.094s-294.688-134.531-294.688-301.094 128.125-301.094 294.688-301.094c57.656 0 96.094 12.813 140.938 38.438 147.344-83.281 249.844-185.781 269.063-365.157h-820.001c0 12.813 6.406 160.156 147.344 294.688 12.813 19.219 12.813 57.656-6.406 70.469s-51.25 0-64.063-19.219c-108.906-102.5-172.969-249.844-172.969-403.594 0-19.219 19.219-38.438 38.438-38.438h948.126c19.219 0 38.438 19.219 38.438 38.438 0 211.406-115.313 397.188-294.688 480.469 38.438 51.25 70.469 121.719 70.469 205zM307.5 543.919c0 115.313 89.688 205 198.594 205s198.594-89.688 198.594-205-89.688-205-198.594-205-198.594 96.094-198.594 205v0z" />
<glyph unicode="&#xe91f;" glyph-name="logout" horiz-adv-x="897" d="M639.654 343.626c0.466 9.836-4.305 20.698-14.664 31.058l-233.221 233.221c-24.711 24.711-65.202 24.639-90.219-0.379-25.193-25.193-25.205-65.393-0.417-90.18l120.771-120.771h-357.716c-35.589 0-64.186-28.682-64.186-64.063 0-35.628 28.55-64.063 63.767-64.063h358.135l-109.779-109.779c-24.787-24.787-24.774-64.988 0.417-90.18 25.018-25.018 65.775-24.823 90.677 0.078l221.314 221.314c10.653 10.653 15.664 22.291 15.382 33.118 0.469 3.103 0.713 6.279 0.713 9.511 0 3.785-0.333 7.498-0.972 11.114zM832.813 845.013c35.381 0 64.063-28.484 64.063-64.119v-896.764c0-35.412-28.435-64.119-64.063-64.119-35.381 0-64.063 28.484-64.063 64.119v896.764c0 35.412 28.435 64.119 64.063 64.119zM384.375-115.926c0 35.381 29.022 64.063 63.872 64.063h384.756c35.275 0 63.872-28.435 63.872-64.063 0-35.381-29.022-64.063-63.872-64.063h-384.756c-35.275 0-63.872 28.435-63.872 64.063zM384.375 780.95c0 35.381 29.022 64.063 63.872 64.063h384.756c35.275 0 63.872-28.435 63.872-64.063 0-35.381-29.022-64.063-63.872-64.063h-384.756c-35.275 0-63.872 28.435-63.872 64.063z" />
<glyph unicode="&#xe920;" glyph-name="my-account-profile" horiz-adv-x="1171" d="M0 771.297v-877.57c0-40.773 32.808-73.716 73.279-73.716h1024.873c40.725 0 73.279 33.003 73.279 73.716v877.57c0 40.773-32.808 73.716-73.279 73.716h-1024.873c-40.725 0-73.279-33.003-73.279-73.716zM109.821 735.191h951.786v-805.357h-951.786v805.357zM512.5 515.405c0 20.297 16.684 36.75 35.949 36.75h367.389c19.853 0 35.949-16.94 35.949-36.75v-14.357c0-20.297-16.684-36.75-35.949-36.75h-367.389c-19.853 0-35.949 16.94-35.949 36.75v14.357zM512.5 339.69c0 20.297 16.684 36.75 35.949 36.75h367.389c19.853 0 35.949-16.94 35.949-36.75v-14.357c0-20.297-16.684-36.75-35.949-36.75h-367.389c-19.853 0-35.949 16.94-35.949 36.75v14.357zM512.5 163.976c0 20.297 16.684 36.75 35.949 36.75h367.389c19.853 0 35.949-16.94 35.949-36.75v-14.357c0-20.297-16.684-36.75-35.949-36.75h-367.389c-19.853 0-35.949 16.94-35.949 36.75v14.357zM219.643 479.017c0 40.393 32.409 73.138 73.138 73.138h73.367c40.393 0 73.138-32.409 73.138-73.138v-73.367c0-40.393-32.409-73.138-73.138-73.138h-73.367c-40.393 0-73.138 32.409-73.138 73.138v73.367z" />
<glyph unicode="&#xf009;" glyph-name="grid-view" horiz-adv-x="951" d="M438.857 246.857v-219.429q0-29.714-21.714-51.429t-51.429-21.714h-292.571q-29.714 0-51.429 21.714t-21.714 51.429v219.429q0 29.714 21.714 51.429t51.429 21.714h292.571q29.714 0 51.429-21.714t21.714-51.429zM438.857 685.714v-219.429q0-29.714-21.714-51.429t-51.429-21.714h-292.571q-29.714 0-51.429 21.714t-21.714 51.429v219.429q0 29.714 21.714 51.429t51.429 21.714h292.571q29.714 0 51.429-21.714t21.714-51.429zM950.857 246.857v-219.429q0-29.714-21.714-51.429t-51.429-21.714h-292.571q-29.714 0-51.429 21.714t-21.714 51.429v219.429q0 29.714 21.714 51.429t51.429 21.714h292.571q29.714 0 51.429-21.714t21.714-51.429zM950.857 685.714v-219.429q0-29.714-21.714-51.429t-51.429-21.714h-292.571q-29.714 0-51.429 21.714t-21.714 51.429v219.429q0 29.714 21.714 51.429t51.429 21.714h292.571q29.714 0 51.429-21.714t21.714-51.429z" />
<glyph unicode="&#xf022;" glyph-name="table-view" d="M219.429 155.429v-36.571q0-7.429-5.429-12.857t-12.857-5.429h-36.571q-7.429 0-12.857 5.429t-5.429 12.857v36.571q0 7.429 5.429 12.857t12.857 5.429h36.571q7.429 0 12.857-5.429t5.429-12.857zM219.429 301.714v-36.571q0-7.429-5.429-12.857t-12.857-5.429h-36.571q-7.429 0-12.857 5.429t-5.429 12.857v36.571q0 7.429 5.429 12.857t12.857 5.429h36.571q7.429 0 12.857-5.429t5.429-12.857zM219.429 448v-36.571q0-7.429-5.429-12.857t-12.857-5.429h-36.571q-7.429 0-12.857 5.429t-5.429 12.857v36.571q0 7.429 5.429 12.857t12.857 5.429h36.571q7.429 0 12.857-5.429t5.429-12.857zM877.714 155.429v-36.571q0-7.429-5.429-12.857t-12.857-5.429h-548.571q-7.429 0-12.857 5.429t-5.429 12.857v36.571q0 7.429 5.429 12.857t12.857 5.429h548.571q7.429 0 12.857-5.429t5.429-12.857zM877.714 301.714v-36.571q0-7.429-5.429-12.857t-12.857-5.429h-548.571q-7.429 0-12.857 5.429t-5.429 12.857v36.571q0 7.429 5.429 12.857t12.857 5.429h548.571q7.429 0 12.857-5.429t5.429-12.857zM877.714 448v-36.571q0-7.429-5.429-12.857t-12.857-5.429h-548.571q-7.429 0-12.857 5.429t-5.429 12.857v36.571q0 7.429 5.429 12.857t12.857 5.429h548.571q7.429 0 12.857-5.429t5.429-12.857zM950.857 45.714v475.429q0 7.429-5.429 12.857t-12.857 5.429h-841.143q-7.429 0-12.857-5.429t-5.429-12.857v-475.429q0-7.429 5.429-12.857t12.857-5.429h841.143q7.429 0 12.857 5.429t5.429 12.857zM1024 667.429v-621.714q0-37.714-26.857-64.571t-64.571-26.857h-841.143q-37.714 0-64.571 26.857t-26.857 64.571v621.714q0 37.714 26.857 64.571t64.571 26.857h841.143q37.714 0 64.571-26.857t26.857-64.571z" />
<glyph unicode="&#xf0ca;" glyph-name="list-view" d="M219.429 27.429q0-45.714-32-77.714t-77.714-32-77.714 32-32 77.714 32 77.714 77.714 32 77.714-32 32-77.714zM219.429 320q0-45.714-32-77.714t-77.714-32-77.714 32-32 77.714 32 77.714 77.714 32 77.714-32 32-77.714zM1024 82.286v-109.714q0-7.429-5.429-12.857t-12.857-5.429h-694.857q-7.429 0-12.857 5.429t-5.429 12.857v109.714q0 7.429 5.429 12.857t12.857 5.429h694.857q7.429 0 12.857-5.429t5.429-12.857zM219.429 612.571q0-45.714-32-77.714t-77.714-32-77.714 32-32 77.714 32 77.714 77.714 32 77.714-32 32-77.714zM1024 374.857v-109.714q0-7.429-5.429-12.857t-12.857-5.429h-694.857q-7.429 0-12.857 5.429t-5.429 12.857v109.714q0 7.429 5.429 12.857t12.857 5.429h694.857q7.429 0 12.857-5.429t5.429-12.857zM1024 667.429v-109.714q0-7.429-5.429-12.857t-12.857-5.429h-694.857q-7.429 0-12.857 5.429t-5.429 12.857v109.714q0 7.429 5.429 12.857t12.857 5.429h694.857q7.429 0 12.857-5.429t5.429-12.857z" />
<glyph unicode="&#xf0fe;" glyph-name="plus-square" d="M731.429 283.429v73.143q0 14.857-10.857 25.714t-25.714 10.857h-182.857v182.857q0 14.857-10.857 25.714t-25.714 10.857h-73.143q-14.857 0-25.714-10.857t-10.857-25.714v-182.857h-182.857q-14.857 0-25.714-10.857t-10.857-25.714v-73.143q0-14.857 10.857-25.714t25.714-10.857h182.857v-182.857q0-14.857 10.857-25.714t25.714-10.857h73.143q14.857 0 25.714 10.857t10.857 25.714v182.857h182.857q14.857 0 25.714 10.857t10.857 25.714zM877.714 594.286v-548.571q0-68-48.286-116.286t-116.286-48.286h-548.571q-68 0-116.286 48.286t-48.286 116.286v548.571q0 68 48.286 116.286t116.286 48.286h548.571q68 0 116.286-48.286t48.286-116.286z" />
<glyph unicode="&#xf146;" glyph-name="minus-square" d="M731.429 283.429v73.143q0 14.857-10.857 25.714t-25.714 10.857h-512q-14.857 0-25.714-10.857t-10.857-25.714v-73.143q0-14.857 10.857-25.714t25.714-10.857h512q14.857 0 25.714 10.857t10.857 25.714zM877.714 594.286v-548.571q0-68-48.286-116.286t-116.286-48.286h-548.571q-68 0-116.286 48.286t-48.286 116.286v548.571q0 68 48.286 116.286t116.286 48.286h548.571q68 0 116.286-48.286t48.286-116.286z" />
</font>
</defs>
</svg>
